com/file/140760610/c8073242/NME_Carling_Awards_Show_-_5-24-02_-_Three. After struggling to achieve success through much of the ’70s and ’80s. The first half plays during the opening dream sequence. Mulan soundtrack Jennifer Daniel; 13 videos; 1,181,334 views; Last updated on Jun 30, 2014; Play all Share. "A Whole New World" (the film's hit single) and Robin Williams' bravura performance as the magic lamp on songs such as "Friend Like Me" and "Prince Ali" are justifiably credited as. On official website, you can also download some bonuses: liner notes of the sound track (so far Japanese only, but english will be eventually available), a jacket image and a CD label image for printing that are for the people who enjoy themselves to burn it. All 22 songs from the The Mule (2018) movie soundtrack, with scene descriptions. Mar 9, 2020 - Explore anne26dilan's board "Film Completo" on Pinterest. Disney's Frozen OST Deluxe Ed. Mulan: An Original Walt Disney Records Soundtrack is the soundtrack for the 1998 Disney animated feature film, Mulan. Lea Salonga, the Disney legend who is known for her roles as the singing voices for Princess Jasmine in Aladdin and Fa Mulan in Mulan and Mulan II and is a judge on the Philippines hit version of "The Voice" has sold a staggering 19 million albums worldwide to date making her one of. i love the mulan films, u made a wikked cool remix , BELIEVE IT and nice job. Phil Collins. Filename : /XLD/06 - Suite From Mulan 06 - Suite From Mulan 06 - Suite From Mulan. The score was recorded at Air Lyndhurst Studio in London, and was performed by the London Symphony Orchestra conducted by James Shearman and produced by Maggie Rodford. Lord Zedd y Rita Repulsa liberan a Ivan Ooze de la prisión en la que ha estado confinado seis mil años, apresado por Zordon. Jerry Goldsmith Mulan / Мулан (Complete Edition) OST '1998. April 25, 2020 Bad Education Soundtrack By Michael Abels; April 25, 2020 Homeless Ashes Soundtrack By Mark Wind; April 25, 2020 Music From Better Call Saul Seasons 1-5 Soundtrack; April 25, 2020 Cinematic Chillout: Relaxing Soundtrack Music; April 25, 2020 Greatest Western Themes Of All Time Soundtrack By Ennio Morricone; April 25, 2020 The Best of Bond…James Bond Soundtrack By John Barry. 386 Followers. 1 trailers available on the site. Fantasy in the Sky was a fireworks performance at Disneyland from 1958 to 1996 (with short engagements in 2004 and early 2015), at the Magic Kingdom from 1971 until 2003, at Tokyo Disneyland in from 1983 until 1988 (with engagements from 1995 until 1997, and again from 2001 until 2003) and at Disneyland Paris from 1993 to 2005. OST - Disney's Mulan. Various - Disney Parade - Mulan download FLAC. Seize the Day (Newsies). The Prize (Soundtrack Music Suite 1963) Jerry Goldsmith 2019 From £0. 44 MB: موسيقى فيلم أسد الصحراء " عمر المختار" (OST) موريس جار FLAC / 44100 Hz / 16 Bits: 1: 0: 377. The highest quality of audio that you can download is flac. Includes all tunes used in the game and unused tunes newly arranged. Zooqle is one of the best torrent search sites that offers around 3 million community verified torrents from all sorts of fun categories like movies, music, games, and many others. Jetzt ist die letzte Gelegenheit, den Zirkus Mulan an diesem Standort zu sehen, sagt Zirkusdirektorin Jaqueline Renz. Add to My Collection. #N#Главная » Джазовая и Блюзовая музыка » Зарубежный джаз » Зарубежный джаз (lossy) Стаж: 11 лет 7 месяцев. Lord Zedd y Rita Repulsa liberan a Ivan Ooze de la prisión en la que ha estado confinado seis mil años, apresado por Zordon. Sous l'océan (Extrait de La petite sirène) 02. Quality: FLAC 24 bit / 96 kHz (Tracks) Artist: Melody the Music Box Title: Mulan: Songs from the Movie (Music Box Lullaby Versions) Released: 2020 Style: Children's Music RAR Size: 357 Mb Tracklist: 01. Comments (0 Comments) Please login or create a FREE account to post comments. Each volume was released individually on CD and cassette between 1995 and 1998. Disc 1 (background music): 1 Main Title (1:33) Ulpio Minucci 2 Macross City (1:32) Ulpio Minucci 3 The Mysterious Ship (1:25) Ulpio Minucci & Arlon Ober. Reflection (From Mulan/Soundtrack Version) - Lea Salonga 4. Lea Salonga, the Disney legend who is known for her roles as the singing voices for Princess Jasmine in Aladdin and Fa Mulan in Mulan and Mulan II and is a judge on the Philippines hit version of "The Voice" has sold a staggering 19 million albums worldwide to date making her one of. Let It Go ( Frozen ) 7. Check out our list of the Essential Jerry Goldsmith Titles you must own. دانلود تک آهنگ Loyal Brave True از موسیقی متن Mulan از کریستینا آگیلرا (Christina Aguilera) کیفیت رایگان فلک FLAC 16 Bit البوم جدید 2020 از کریستینا آگیلرا. By arrangement with SONY BMG MUSIC ENTERTAINMENT. Filename : /XLD/06 - Suite From Mulan 06 - Suite From Mulan 06 - Suite From Mulan. Listen free to Various Artists – Mulan Original Soundtrack (True To Your Heart, Reflection and more). American musician Stevie Wonder has released 23 studio albums, three soundtrack albums, four live albums, 11 compilations, one box set, and 98 singles. Five Star - Can't Wait Another Minute. Cinderella's soundtrack is designed similarly to Sleeping Beauty's - i. 83 MB, 1997 Francis Lai - Love Story (RR 02). Al escapar, Ivan destruye el Centro de Mando, haciendo que Zordon quede fuera de su tubo, con el riesgo de morir en poco tiempo. The Motorcade / Boarding Air Force One03. موسيقى فيلم ناصر 56 (OST) ياسر عبد الرحمن FLAC / 44100 Hz / 16 Bits: 1: 0: 233. Donny Osmond may not ever qualify as a rocker, but he shows himself the perfect choice for the male vocal lead here, with his best effort since his brief turn in the spotlight as one of the. Publicada hace 2 años. 1 OST [FLAC TNT] Music 1 hour ibit. The best thing about this CD is that you get so many tracks. Buy 'Disney's Greatest Volume 1 by Various Artists' MP3 download online from 7digital United States - Over 30 million high quality tracks in our store. Various - Super Sigle TV Vol. Chris Daughtry - Bring Me To Life (From "The Passion New Orleans" Television Soundtrack) 64. Stream ad-free or purchase CD's and MP3s now on Amazon. Ming-Na Wen and B. 18 Haziran 2010 Cuma. Alive And Alone07. Free Lossless Audio Codec. Disney film live action Mulan Dalam film action cina kali ini actor Cina-Amerika, bernam Liu Yifei, berperan sebagai Mulan. com | 违法不良信息举报电话:4000233233转3 | 营业执照. Mulan Soundtrack. flac /XLD/06 - Suite From Mulan 06 - Suite From Mulan 06 - Suite From Mulan. 33 MB: موسيقى أنمي قناص المدينة OST) FLAC / 44100 Hz / 16 Bits) 1. Mulan [Original Disney Soundtrack]Born on Staten Island on December 18, 1980, Aguilera spent her early childhood in Rochester and Wexford, Pennsylvania, suburban towns just outside of Pittsburgh. Babenhausen. Written by Bob Thiele (as Robert Thiele) & George David Weiss. A Star is Born (Full) - Hercules Prev Next. m4a8,506 KB02 The Sarcophagus. Filename F:\CDRips\Various - Disney's Greatest Volume 1 (2001) [FLAC]\02 - Lea Salonga - Reflection [Mulan (1998)]. 2 - Do You Want to Build a Snowman? 3 - For the First Time in Forever. FLAC-DDR: Description: Captain Marvel OST 2019 WEB-DL 24Bit FLAC-DDR Hi-Res 24-bit – 96. Cinderella's soundtrack is designed similarly to Sleeping Beauty's - i. We have 186 Synthesizers Music torrents for you!. bt天堂,提供最新最全最好看的电影下载,720p、1080p、蓝光电影一应俱全. Easy and quick download. Audirvana: plays both AIFF and FLAC formats, $50 but has a free trial period; Software for Windows. com all movie soundtracks. Akira Yamaoka - Silent Hill - 3 Special Mini Sound Track | 5 | 119Mb | 18:53 | FLAC | 882 L. Các bạn có thể nghe, download (tải nhạc) bài hát papi mp3, playlist/album, MV/Video papi miễn phí tại NhacCuaTui. Includes all tunes used in the game and unused tunes newly arranged. Temukan lagu terbaru favoritmu hanya di lagu 123 stafaband planetlagu. Sleep Away 04. track by Mason Lieberman, Yoko Kanno, Shihori, Úyanga Bold, Raj Ramayya, Substantial, Mega Ran, Red Rapper. Let it go, let it go. Discover and download music with our free personalized discovery tools. Katakiri Rekka - Why, Or Why Not OST - Burnout 3 Takedown Ost - John Harrison OST Born to Boogie Ost Ep Ost Espion(S) Ost Eyes Wide Shut OST Kama Sutra (A Tale Of Love) OST Small Soldiers Ost-Hanni Und Nanni Other. By using our website and our services,. m4a5,810 KB07 Camel Race. Game Of Thrones Final Season OST - Violin & Erhu Epic Cover 7. 26 Nov 2013. United States: San Diego. Mucho más que documentos. Like if you play I Am Moana and listen to the part right where she says "rising", you can hear some sort of click right when she says it. Lord Zedd y Rita Repulsa liberan a Ivan Ooze de la prisión en la que ha estado confinado seis mil años, apresado por Zordon. Preview, buy and download high-quality music downloads of Disney Ultimate Buddy Collection by Various Artists from 7digital United Kingdom - We have over 30 million high quality tracks in our store. Index last generated: 2020-05-04 09:56 -07:00. 15 liked songs • 212. Discover and download music with our free personalized discovery tools. biz/7thfire03072012. - あなたに会えて [flac + aac 256 / web] [2020. 1 kHz / 16 Bit Source: Digital download Album Artist: Beau Dermott Album Name: Brave Genre: Vocal Release Date: 2017 ArtWork: not included Size. As in the real Disneyland, this collection will never be completed and will continue to grow over time. Mulan (Soundtrack) by Various Artists Amazon. Like A Mercedes 02. - oliver y su pandilla – nueva york, ciudad de la aventura 61. 1998年6月19日 花木兰 Mulan 1999年6月18日 泰山 Tarzan 2000年1月1日 幻想曲2000 Fantasia 2000 2000年12月15日 变身国王 The Emperor's New Groove 2001年06月15日 失落的帝国 Atlantis:TheLostEmpire 2002年06月21日星际宝贝Lilo&Stitch 2002年11月27日 星银岛 Treasure Planet. com is a free search engine: flac, mp3, ogg and mp4. You may have to register before you can post: click the register link above to proceed. Dripping Sauce. April 24, 2020 The Definitive James Bond Collection Soundtrack; April 24, 2020 Better Call Saul: Season 1-5 Soundtrack; April 24, 2020 Home: Season 1 Soundtrack; April 24, 2020 Space Station 76 Soundtrack By Marc Fantini, Steffan Fantini; April 24, 2020 Miracle in Cell No. The Huns Attack - Mulan OST by Yahoosoundtracks. Quality: FLAC 16 bit / 44. The rest plays at the end when Barnum asks Phillip to finish the performance. Happy Working. The 50 Best Broadway Songs Ever (2018) FLAC Christophe - Le beau bizarre (1978 Reissue) (2008) FLAC Kevin Kenner, Kyung Wha Chung - Beau Soir - Works for Violin & Piano by Fauré, Franck & Debussy (2018) Hi-Res. Mucho más que documentos. 5 - Let It Go. AllMusic Rating. Look Through My Eyes (Brother Bear Phil Collins) 19. 2013-09-13T10:29:37Z Comment by nine tailed fox. Rosie O'Donnell, Phil Collins & Cast - Tarzan. Disney's Mulan (1998) (The Deluxe Edition) MP3+FLAC; If this is your first visit, This is an instrumental version of Reflection performed by Vanessa Mae, and appears in the 14 track version of the original soundtrack. Mulan OST Bombon El Perro DVDRip with English Subtitles. A Star is Born (Full) - Hercules Prev Next. With Kristen Bell, Idina Menzel, Josh Gad, Jonathan Groff. 3:23 [ENG. Christina Aguilera - Loyal Brave True (From Mulan)03. com | 违法不良信息举报电话:4000233233转3 | 营业执照. Although rather new to the torrenting world, Zooqle has managed to make a name for itself. Filename F:\CDRips\Various - Disney's Greatest Volume 1 (2001) [FLAC]\02 - Lea Salonga - Reflection [Mulan (1998)]. Link: nw news. Al escapar, Ivan destruye el Centro de Mando, haciendo que Zordon quede fuera de su tubo, con el riesgo de morir en poco tiempo. (Brzo zaposlenje, ponuda poslova, zarada)-studentska zadruga, studentski servis. Мулан / Mulan (Тони Бэнкрофт / Tony Bancroft, Бэрри Кук / Barry Cook) [1998 г. Plié 3/4 - A Dream is a Wish (Cinderella) 24x8 4. , мультфильм, мюзикл, приключения, семейный, BDRip] Dub 1. Mulan OST - 13. 6 - Reindeer(s) Are Better Than People. Only You (Mandarin) 07. Mulan [Original Disney Soundtrack]Born on Staten Island on December 18, 1980, Aguilera spent her early childhood in Rochester and Wexford, Pennsylvania, suburban towns just outside of Pittsburgh. OST VA - Disney Records. Preview The Soundtrack Of My Life. com converter. Each volume was released individually on CD and cassette between 1995 and 1998. The Prize (Soundtrack Music Suite 1963) Jerry Goldsmith 2019 From £0. 96 MB: 31: 1: 402: Greg Howe - Ascend (1999) [Flac Cue] [TNTvillage] 06. Dig a Little Deeper (From The Princess and the Frog/Soundtrack Version) (Jenifer Lewis - Featuring - The Pinnacle Gospel Choir 3. 迪斯尼动画的音乐向来为人们称道,《花木兰》更是以亲切的中华音乐打动了全球观众。Mulan的零售版本只有12首曲目,大大低于影片配乐,于是这支Promo CD成为了市场炙手可热的东东,网上竞拍达到400美元,是近年价格最高的Promo原声带之一。. Label: Walt Disney Records ‎- CDD 010 Type: CD, Minimax, EP Country: Italy Date of released: 1999. Original 1984 Motion Picture Soundtrack composed and conducted by Jerry Goldsmith. Our vision is to spread the joy of playing the piano to every corner of the globe. Um dos grandes Clássicos da Disney, Mulan, tem uma trilha sonora com músicas inspiradoras e memoráveis. Nautilus Pompilius - Крылья (Из к & ф Брат) 68. Juan Manuel Escamilla, Maria Caneda, Miguel Morant, Adel Hakki, Chorus,. 1 kHz / 16 Bit Source: Digital download Album Artist: Beau Dermott Album Name: Brave Genre: Vocal Release Date: 2017 ArtWork: not included Size. Skip navigation Sign in. Stranger Things Soundtrack Flac. OST Center, le réflexe des fans de bandes originales. It features the critically acclaimed song "Let It Go"—film version performed by Idina Menzel; single version performed by Demi Lovato—which won. Katakiri Rekka - Why, Or Why Not OST - Burnout 3 Takedown Ost - John Harrison OST Born to Boogie Ost Ep Ost Espion(S) Ost Eyes Wide Shut OST Kama Sutra (A Tale Of Love) OST Small Soldiers Ost-Hanni Und Nanni Other. Jetzt ist die letzte Gelegenheit, den Zirkus Mulan an diesem Standort zu sehen, sagt Zirkusdirektorin Jaqueline Renz. Harvey Fierstein, James Hong, Lea Salonga, Jerry Tondo, Matthew Wild. Note: Available at a lower price from other sellers that may not offer free Prime. Free Lossless Audio Codec. The best thing about this CD is that you get so many tracks. Nächstes Jahr soll die Wiese an der Babenhauser Straße, Ecke Splittenbrede, bebaut werden. Sie bedauert das: Bielefeld ist für uns zur zweiten Heimat geworden. Amado Mio 04. If I Didn't Have You (Monsters, Inc. music belongs to the movie (2009) Disney RELAXING PIANO Collection -Sleep Music, Study Music, Calm Music (Piano Covered by kno) - Duration: 3:04:00. Download Lagu Full Album Download Ringtone Lucu,Unik Dan Gokil Cara mudah edit foto online gratis Cara mudah edit foto online jadi unik Cara Praktis men-Split File Untuk Disimpan Dalam Email Cara Memperlakukan Laptop( Seharusnya ) Cara Menghilangkan Bau Apek Pada Pakaian Cara mudah membuat diagram online Google Tidak Hanya Di Bumi Cara mudah mengerjakan tugas tanpa mengetik Cara Mudah Download. Find all 24 songs in The Mule Soundtrack, with scene descriptions. 2013-09-13T10:29:37Z Comment by nine tailed fox. Temat: Mulan - OST Mulan - OST 1. Car forum lamborghini bmw mercedes s2000 land c6 Custom Search. 1 Audio at 640 kpbs and. History of Exotic Cars: 10 fast facts about Maserati plus classic racing. Antarctica :: Antarctic Treaty System. Quality: FLAC 16 bit / 44. Released on June 2, 1998, the album featured songs by Matthew Wilder and David Zippel, conducted by Paul Bogaev, and score composed and conducted by Jerry Goldsmith. @exerted: no prob anytime dude. m4a Apple Music Rip 256 Kbps. Christina Aguilera - Loyal Brave True (From "Mulan"/Official Lyric Video). Animation Mulan Mulan II Sitemap Once Loyal - Metalium - Grounded - Chapter Eight , Rudolph The Red-Nosed Reindeer - Various - Die Hit-Giganten - Best Of Christmas , Prometheus Unbound - Cybertech - Pharos , Over And Over - Cabaret Voltaire - The Crackdown , Chanson DAmour - The Bert Kaempfert Orchestra* - Celebrating A Legend. What they're going to say. - Mulan – Mi dulce y linda flor 59. Vinyl, Soundtrack, August 16, 2019. High quality Christina Aguilera music downloads from 7digital United Kingdom. The Huns Attack - Mulan OST by Yahoosoundtracks. Randy Newman, Various - La Princesa Y El Sapo download flac. Easy and quick download. Original Soundtrack. Leslie French - Reflection (1:54) 5. Courtesy of The Verve Music Group. Al escapar, Ivan destruye el Centro de Mando, haciendo que Zordon quede fuera de su tubo, con el riesgo de morir en poco tiempo. Comience la prueba gratis Cancele en cualquier momento. Addeddate 2017-11-04 23:30:16. 94 MB, 1997 Buena Vista Social Club - Buena Vista Social Club(WCD 050). 2013-09-06T19:09:15Z Download Short Hair (Mulan OST) Remix. Rich The Kid - Red10. Check out Mulan (Soundtrack) by Various on Amazon Music. Mucho más que documentos. com all movie soundtracks. The Time of Your Life (A Bug's Life) 13. Moana Original Motion Picture Soundtrack (Deluxe Edition) Available in Audiophile 96kHz/24bit Title: Moana Original Motion Picture Soundtrack (Deluxe Edition). 8k views • composed by Lorne Balfe. Shanghai Tan 05. m4a4,827 KB09 Mumia. Elephant (Original Soundtrack) By Ramin Djawadi Released on 04/03/2020 Loyal Brave True (From "Mulan") By Christina Aguilera Released on 03/06/2020 TROLLS: World Tour (Original Motion Picture Soundtrack) By Various Artists Released on 03/13/2020. Only You (Mandarin) 07. i love the mulan films, u made a wikked cool remix , BELIEVE IT and nice job. VV - Kill Bill Vol. 1 kHz (Tracks) Artist: Various Artists Title: Disney Classics Released: 2013 Style: Pop, Soundtrack RAR Size: 1. Tarzan (Original Motion Picture Soundtrack) Various Artists Soundtrack • 1999 Preview SONG TIME Two Worlds. Each volume was released individually on CD and cassette between 1995 and 1998. m4a4,950 KB04 Giza Port. music belongs to the movie (2009) Disney RELAXING PIANO Collection -Sleep Music, Study Music, Calm Music (Piano Covered by kno) - Duration: 3:04:00. Tytułowa Mulan mieszka wraz z najbliższymi w małej wiosce, gdzieś w Chinach. When She Loved Me (Toy Story 2) 15. hinahyuuga94 153,799 views. Bạn có thể tải trực tiếp bài hát này về thiết bị bằng cách dùng ứng dụng Zing MP3 để quét mã QR này. Melody the Music Box - Honor to Us. 5 - Hakuna Matata 2004 - Winnie the Pooh - Springtime With Roo 2005 - Chicken Little 2005. Filename E:\EACrips\Various - 2013 - Disney Classics (Disc 1- Modern Classics) [FLAC]\11 - Reflection - Mulan. The Only Source Of 1337x YTS & YIFY 1337x TORRENT 1337x - Make Sure To download Viva the Underdogs (2020) Torrent Movie - Film 1337x Quality in HD / 1337x browse and download 1337x YIFY movies 1337x in excellent 1337x 4k 2160p 1337x, HD 1337x 1440p 1337x, HD 1337x 1080p, HD 720p 1337x, SD 480p, SD 1337x 360p, SD 240p quality Torrents - Viva the Underdogs (2020) Released On 2019 In Jan. 1 audio formats such as DTS-HD Master Audio, FLAC, or PCM (LPCM). com/file/140760610/c8073242/NME_Carling_Awards_Show_-_5-24-02_-_Three. Let it go, let it go. Germany: Berlin. Lots Of Love 06. - Mulan – Mi dulce y linda flor 59. PREVIEW Trashin' the Camp. Mulan: An Original Walt Disney Records Soundtrack is the soundtrack for the 1998 Disney animated film, Mulan. wav Peak level 77. m4a4,544 KB03 Tuareg Attack. Original Soundtrack 5 Original Soundtrack 6 Original Soundtrack 7 Original Soundtrack 8 Original Soundtracks 1 Oshima Hiroyuki Feat. Mulan's decision (Synthesizer version. Easy and quick download. Descargar OST de [Tarzan] Nuevos estrenos. The Movie 2003 - The Jungle Book 2 2004 - Home On The Range 2004 - Kim Possible - The Villain Files 2004 - Mickey Donald Goofy-The Three Musketeers 2004 - Mickeys Twice Upon a Christmas 2004 - Mulan II 2004 - The Incredibles 2004 - The Lion King 1-1. Umělec Různí interpreti. The soundtrack to the Walt Disney animated feature Mulan II mixes vocal recordings done specifically for the movie, a version of one of those songs by a rock group, and selections from the film's instrumental score. m4a /XLD/06 - Suite From Mulan 06 - Suite From Mulan 06 - Suite From Mulan. [Mulan OST] Reflection Đăng bởi: conangbenho_1998. 5 - Let It Go. Mist Of Pandaria - Way Of The Monk - Erhu Cover 4. 1 kHz / 16 Bit Source: Digital download Album Artist: VA Album Name: Sing Your Heart Out Disney Release Date: 19-10-2018 Bitrate: 432-1007 kbps Duration: 03:42:57 ArtWork: not included Tracklist: 01. Оzzу Оsbоurnе - Оrdinаrу Маn [Jараnеsе Еditiоn] (2020) Jоrn - Livе In Васk [2СD + DVD5] (2011 Нumаn Fоrtrеss - Dеfеndеrs Оf Тhе Сrоwn (2003 Dеrdiаn - Disсоgrарhу (2005-2013 Marillion - Early Stages The Official Bootleg Box Set 1982-1987(6CD) (2008 Christy Moore - The Christy Moore Collection 81-91 (1991. Přední strana CD obalu (cover) k albu Disney Classics ve formátu JPEG. Jamais je n'avouerai (Extrait de Hercule) 05. Anastasia Overview - The BEST Broadway source for Anastasia tickets and Anastasia information, photos and videos. Ukázky zdarma k poslechu. htmW e are HOME FREE in SERENITY GLOBAL COOP W ORLD WAMPUM WAY. 00 kHz Released on March 8, 2019 by Hollywood Records. Vanessa-Mae - Discography 1995-2004 (11 CD) FLAC FLAC 16 bit / Downtempo / Ambient/ New Age / Instrumental / Electronic / Club / Discography 15-07-2017, 11:25 2 364 0 musiclover All albums Vanessa-Mae. Find the latest tracks, albums, and images from Mulan Soundtrack. (Soundtrack) Клубная мания / Party Monster - 2003, FLAC (tracks+. 0 % Test CRC 47095BA4 Copy CRC 47095BA4 Accurately ripped (confidence 10) [A8D06072] (AR v2) Copy OK Track 3. Game Of Thrones Final Season OST - Violin & Erhu Epic Cover 7. rar (1986) Hoosiers [2012,Intrada] - Jerry Goldsmith. May 3, 2020 ZeroZeroZero Soundtrack By Mogwai; May 3, 2020 Das Boot: Staffel 2 Soundtrack By Matthias Weber; May 3, 2020 Legends of the Fall Soundtrack Expanded By James Horner; May 3, 2020 Un detective Soundtrack By Fred Bongusto; May 3, 2020 Soy Luna Soundtrack; May 3, 2020 Highlander Soundtrack Complete By Michael Kamen, Queen; May 3, 2020 Salut Jerusalem Soundtrack By Vangelis. دانلود سینگل Christina Aguilera به اسم Loyal Brave True (From "Mulan") دموی 30 ثانیه ای آهنگ ها رو در آیتونز بشنوید Genres: Soundtrack. World Of Warcraft - Anduin Theme - Erhu & Violin Cover 2. Nautilus Pompilius - Крылья (Из к & ф Брат) 68. Pokud si toto album vypálíte jako Audio CD, můžete tento dokument vytisknout a vložit do zadní strany krabičky. Essa edição nacional, ai. And the fears that once controlled me. from The Definitive 16-bit FLAC; Preview Best of One Night Only (Live) Best of (Live) Donny Osmond 2017 From kr 90,00. Mulan Soundtrack. 3 MB: 0: 0: unknown: Toy Story (An Original Walt Disney Records Soundtrack) Today: 285. Part Of Your World ( The Little Mermaid ) 6. دانلود سینگل Christina Aguilera به اسم Loyal Brave True (From "Mulan") دموی 30 ثانیه ای آهنگ ها رو در آیتونز بشنوید Genres: Soundtrack. Empty Rooms10. White Christmas 3. Reflection (Mulan) 12. OST-The Witch Hunter [FLAC ] fiveofseven in mainstage 3 geetha 2019 missing a lesbian crime story maan karate mulan Birbal supergirl s04e06 A Gift of Dragons. cue Битрейт аудио: lossless. 22nd Jan 2017 - Updated jQuery and plugins. 1 OST [FLAC TNT] Music 8 days btdb. Ost Alvin And The Chipmunks (1) Ost Anakku Bukan Anakku (1) Ost Andai Ku Tahu (1) OST AWAN DANIA (1) Ost Ayat-Ayat Cinta (2) Ost Bersamamu (1) OST Cicakman 2 (1) Ost Cinderella (2) Ost Coblos Cinta (1) Ost Debu Debu Kasih (1) Ost Dilema Wanita (1) Ost Doraemon (1) OST Dunia Baru The Movie (1) Ost Duyung (1) OST Evolusi KL Drift (1) OST Get. 18] may 6, 2020 クアイフ (Qaijff) - 光福論 [FLAC / 24bit Lossless / WEB] [2019. Mulan Original Soundtrack, an album by Various Artists on Spotify. On official website, you can also download some bonuses: liner notes of the sound track (so far Japanese only, but english will be eventually available), a jacket image and a CD label image for printing that are for the people who enjoy themselves to burn it. 3:23 [ENG. Ming-Na Wen and B. hinahyuuga94 153,799 views. Plié 2/4 - Princess Leia's Theme (Star Wars) 12x8 5. MUSIC Add comments. Nächstes Jahr soll die Wiese an der Babenhauser Straße, Ecke Splittenbrede, bebaut werden. Stream ad-free or purchase CD's and MP3s now on Amazon. Vinyl, Soundtrack, August 16, 2019. Jerry Goldsmith《花木兰》(Mulan The complete edition)Complete Score[APE+CUE]. Je voudrais (Extrait de Raiponce) 04. Mulan soundtrack Jennifer Daniel; 13 videos; 1,181,334 views; Last updated on Jun 30, 2014; Play all Share. OST - Disney's Mulan. Randy Newman - The Time of Your Life - A Bug's Life [3:13] 13. Check out Mulan (Soundtrack) by Various on Amazon Music. Classic Disney: 60 Years of Musical Magic is a 5-volume compilation series, each containing 25 songs compiled from Disneyland and Walt Disney World, various Disney films in animation and live-action, and the Walt Disney anthology television series. Idina Menzel : Let It Go (From "Frozen") [00:03:43] 02. Elephant (Original Soundtrack) By Ramin Djawadi Released on 04/03/2020 Loyal Brave True (From "Mulan") By Christina Aguilera Released on 03/06/2020 TROLLS: World Tour (Original Motion Picture Soundtrack) By Various Artists Released on 03/13/2020. Disney's Frozen OST. 01 | BYU Chamber Orchestra - Lea Salonga Overture: Sun and Moon / A Whole New World / I Dreamed a Dream / On My Own / Reflection (Live). Your Internet Provider is tracking your torrent activity! Hide your IP ADDRESS with a V. 7 MB) Audio Create Time: File Size: 338. Genre: Score Date: 2015 (1998) Country: USA Audio codec: MP3 Quality: 320. Empire Cast - Original Soundtrack Season 2 Volume 1 download flac "Godspell" Original Cast - Godspell download flac. Sakai Noriko Complete DVD(7DVD)(D5) Price: $13. White Christmas 3. Erhu Covers - Anthology by Eliott Tordo, released 19 December 2019 1. There are 5 compilation albums for this title. - oliver y su pandilla – nueva york, ciudad de la aventura 61. rip in Music. 0 % Test CRC 05682A99 Copy CRC 05682A99 Track not present in AccurateRip database Copy OK Track 12. A Bad Moms Christmas. Lea Salonga, best known as the voice of Jasmine in Aladdin, steals the show here as the title character in Disney's Mulan. Jetzt ist die letzte Gelegenheit, den Zirkus Mulan an diesem Standort zu sehen, sagt Zirkusdirektorin Jaqueline Renz. 0 % Test CRC 47095BA4 Copy CRC 47095BA4 Accurately ripped (confidence 10) [A8D06072] (AR v2) Copy OK Track 3. Released on June 2, 1998, the album featured songs by Matthew Wilder and David Zippel, conducted by Paul Bogaev, and score composed and conducted by Jerry Goldsmith. June Foray - Mulan (18:41) Songs and Story: Mulan Soundtrack. 7 MB: 100: 3 years: 11: 632: 29. Disney's Frozen Deluxe Soundtrack (2013) (flac) Uploaded 01-23 2014, Size 602. music belongs to the movie (2009) Disney RELAXING PIANO Collection -Sleep Music, Study Music, Calm Music (Piano Covered by kno) - Duration: 3:04:00. Nakupujte jednotlivé skladby nebo celá alba interpreta Christina Aguilera, a to v digitálním formátu MP3, FLAC/Hi-Res (WAV) či ve fyzické podobě na CD i LP (vinyl). Find all 24 songs in The Mule Soundtrack, with scene descriptions. Immortals ( Big Hero 6 ) 5. freedb is a free CD and music data base service to look up textual metadata about music, audio or data CDs. Jerry Goldsmith《花木兰》(Mulan The complete edition)Complete Score[APE+CUE]. com converter. Bande son de Mulan 2, la mission de l'empereur Here is the official CD of the soundtrack of the Englsih version of the sequel film. 广播电视节目制作经营许可证: (沪)字第1248号 | 网络文化经营许可证: 沪网文[2016]2296-134号 | 信息网络传播视听节目许可证: 0910417 | 互联网ICP备案:沪ICP备13002172号-3 沪ICP证: 沪B2-20100043 | 违法不良信息举报邮箱:[email protected] Buy, preview and download over 19 million tracks in our store. Prime Video is the only place where you can watch Prime Originals such as the Oscar. The original soundtrack of La-Mulana (NIGORO software number one). Idina Menzel : Let It Go (From "Frozen") [00:03:43] 02. Lights Indiefest Compilation. Luther Vandross - Never Too Much. Aladdin (Original Motion Picture Soundtrack) Amazon Music Unlimited. Mulan had a lot of this. Celia Vergara, Chorus, Marta Martorell, María Caneda, Paula Bas - Honra Nos Darás05. Strangers Like Me (Tarzan) 14. 1 Audio at 640 kpbs and. Vanessa Mae - Reflection04. ITEMS IN DATABASE: 191 | LAST UPDATE: JULY 07, 2018; Year Name Type Tracks Runtime Format Scans; 1956: PLAYHOUSE 90: OST: 05: 19:57: FLAC: 1959: CBS PRODUCTION. Usher - You'll Be in My Heart (Tarzan) 04. Preview Minimúsica, Vol. Featuring all your favorites from Mary Poppins, Toy Story, Aladdin, Moana, Frozen and more, perfect for singing your heart out and imagining your own fairytale or adventure. As a Prime member in the UK, you can stream over two million songs ad-free, listen on any Echo device, and take your music anywhere with offline listening. Je voudrais (Extrait de Raiponce) 04. Quality: FLAC 24 bit / 44. 7 MB: 100: 3 years: 11: 632: 29. Kingdom Hearts Original Soundtrack Complete is a video game compilation album that contains music from all the games in the Kingdom Hearts series prior to the release of Kingdom Hearts 358/2 Days, Kingdom Hearts Birth by Sleep, and Kingdom Hearts coded. Zadní strana CD obalu k albu Disney Classics ve formátu PDF. Chilling Like A Villain ( Descendants 2 ) 8. Released on June 2, 1998, the album featured songs by Matthew Wilder and David Zippel, conducted by Paul Bogaev, and score composed and conducted by Jerry Goldsmith. What is my IP is a service offered by Traffic Feed to an individual or any computer to help you find the IP address and location of a device or of yourself. Soleil brûlant (Extrait de Rebelle) 06. Bei uns ist alles online, von den neusten Charts und Alben bis zu alten Musik-Klassikern. (Original Motion Picture Soundtrack) download flac. Ke stažení ve formátu MP3 a FLAC. 4 (La Educación) Preview Mulan Original Soundtrack. com you can download lossless music in popular formats FLAC, APE, ALAC, MP3, M4A. Descargar OST de [Tarzan] Nuevos estrenos. Topics disney, frozen, ost, soundtrack. Part Of Your World ( The Little Mermaid ) 6. Elephant (Original Soundtrack) By Ramin Djawadi Released on 04/03/2020 Loyal Brave True (From "Mulan") By Christina Aguilera Released on 03/06/2020 TROLLS: World Tour (Original Motion Picture Soundtrack) By Various Artists Released on 03/13/2020. Audio CD, May 24, 2019. Cứu nhân độ thế các bác ơi :(( Em muốn tìm cái bài trong 1 bộ fim (cũng hơi cũ rồi ạh). Hans Zimmer - Broken Arrow Price: $5. Mulan Original Motion Picture Soundtrack: the ost, music, songs, score, cover, reviews, preview, online listen, tracks. 45 GB Мулан / Mulan (1998) BDRip от HQCLUB 1. Em chỉ có 1số ít ỏi thông tin về nó:. Lea Salonga, best known as the voice of Jasmine in Aladdin, steals the show here as the title character in Disney's Mulan. By using our website and our services, you agree to our use of cooki. Quality: FLAC 16 bit / 44. Cristiana (Ewan McGregor) es un joven escritor que tiene un don para la poesía y se enfrenta a su padre para poder pasar al barrio bohemio de Montmartre en París. 6 X Track quality 100. Na ekrany naszych kin trafił kolejny animowany film z wytwórni Walta Disneya. Mulan [Original Disney Soundtrack]Born on Staten Island on December 18, 1980, Aguilera spent her early childhood in Rochester and Wexford, Pennsylvania, suburban towns just outside of Pittsburgh. Chris Daughtry - Bring Me To Life (From "The Passion New Orleans" Television Soundtrack) 64. Courtesy of The Verve Music Group. We have 45 Disney-Soundtrack Music torrents for you!. Farm iTunes plus AAC M4A 01 Exceptional – China Anne McClain 02 Dynamite – China Anne McClain 03 Calling All the Monsters – China Anne McClain 04 Unstoppable – C. 3 MB: 0: 0: unknown: Toy Story (An Original Walt Disney Records Soundtrack) Today: 285. Takut Bilang Tidak 04. Free download full zip, rar archives. Virtual Piano is fast becoming a form of expression and communication between different cultures and regions of the world – crossing language, space and time. Whoop - de 16. Walt Disney requested a fireworks show against the backdrop of. A Girl Worth Fighting For - Harvey Fierstein/James Hong/Lea Salonga/Jerry Tondo/Matthew Wilder. 96 MB: 31: 1: 402: Greg Howe - Ascend (1999) [Flac Cue] [TNTvillage] 06. Juan Manuel Escamilla, Maria Caneda, Miguel Morant, Adel Hakki, Chorus,. 45 GB Мулан / Mulan (1998) BDRip от HQCLUB 1. Terpaksa 03. rar; Jerry GOLDSMITH -《白电王》(Powder)[APE]. The Motorcade / Boarding Air Force One03. The Prize (Soundtrack Music Suite 1963) Jerry Goldsmith 2019 From £0. Luther Vandross - Never Too Much. Mulan Original Motion Picture Soundtrack: the ost, music, songs, score, cover, reviews, preview, online listen, tracks. Your Internet Provider is tracking your torrent activity! Hide your IP ADDRESS with a V. Virtual Piano is fast becoming a form of expression and communication between different cultures and regions of the world – crossing language, space and time. We are the number one online shopping website for Asian entertainment products covering Asian movies and videos, Japanese, Korean, and Chinese movies, TV dramas, Asian music, books, comics, games, electronics, and more!. 2006 Disneys Mulan Original Soundtrack inherited from his experience with jazz. - Peter Pan – La cancion del pirata 62. Takut Bilang Tidak 04. from The Definitive 16-bit FLAC; Preview Best of One Night Only (Live) Best of (Live) Donny Osmond 2017 From kr 90,00. Dig a Little Deeper (From The Princess and the Frog/Soundtrack Version) (Jenifer Lewis - Featuring - The Pinnacle Gospel Choir 3. Container: FLAC (tracks) Quality: Hi-Fi, lossless audio Sample Rate: 44. The CD I have is "Disney's Greatest Hits" from Walt Disney Records 1998, Wonderland Music Company, Made in Germany. Album Disney Princesses. com/file/140760610/c8073242/NME_Carling_Awards_Show_-_5-24-02_-_Three. Erhu Covers - Anthology by Eliott Tordo, released 19 December 2019 1. The Pirate Bay torrent website is the king of the torrent sites. It follows the same formula that's informed every Disney soundtrack since The Lion King-- take two sweeping ballads and one up-tempo dance number, and surround them with reprises and re. What A Wonderful World. 1 kHz (Tracks) Artist: Various Artists. Disney Mulan Ost mp3 Download. Puppy Love. No Security04. Anacondaz - Круглый год 65. Mar 1-7 2012 http://7thfire. Semesta Hidupku 02. com contact: [email protected] Click Here to buy Anastasia tickets today!. bt天堂,提供最新最全最好看的电影下载,720p、1080p、蓝光电影一应俱全. Sarah McLachlan - When She Loved Me - Toy Story 2 [3:03] 15. 4 - Love Is an Open Door. wav Peak level 77. Mulan OST - 13. Rosie O'Donnell, Phil Collins & Cast - Tarzan. com you can download lossless music in popular formats FLAC, APE, ALAC, MP3, M4A. The highest quality of audio that you can download is flac. The Huns Attack - Mulan OST by Yahoosoundtracks. 1 kHz (Tracks). Nakupujte jednotlivé skladby nebo celá alba interpreta Christina Aguilera, a to v digitálním formátu MP3, FLAC/Hi-Res (WAV) či ve fyzické podobě na CD i LP (vinyl). Lil Uzi Vert - That Way04. Mulan: An Original Walt Disney Records Soundtrack. 85 MB: موسيقى أنمي قناص المدينة OST) FLAC / 44100 Hz / 16 Bits) 1: 0: 7. Quality: FLAC 24 bit / 96 kHz (Tracks) Artist: Frances Yip Title: Frances Yip 50th Anniversary Released: 2020 Style: Pop, Cantopop RAR Size: 971 Mb Tracklist: 01. Disney's Frozen OST Deluxe Ed. Sakai Noriko Complete DVD(7DVD)(D5) Price: $13. I actually bought the soundtrack and when I noticed it, I looked around online for other versions and I'm finding the same click noises. User Ratings (0) AllMusic Review by Richie Unterberger [+] By the time this 40th anniversary deluxe edition of The Sound of Music appeared in 2005, it had gotten to the point where the soundtrack was getting reissued every five years. Empire Cast - Original Soundtrack Season 2 Volume 1 download flac "Godspell" Original Cast - Godspell download flac. Dalam album kompilasi OST LASKAR PELANGI, lagu Tak Perlu Keliling Dunia ini merupakan lagu kelima. Discover more music, concerts, videos, and pictures with the largest catalogue online at Last. 1 & Bootstrap. Jerry Goldsmith Mulan / Мулан (Complete Edition) OST '1998. Disney Reflection Mulan OST Đăng bởi: Lossless 0MB • flac • VIP; Bài hát này không tải được vì lý do bản quyền. Melody the Music Box - I'll Make a Man Out of You (04:01). Buy, preview and download over 19 million tracks in our store. L'amour brille sous les étoiles (Extrait de Le roi lion) 03. Movie: Mulan (1998) info with movie soundtracks, credited songs, film score albums, reviews, news, and more. What they're going to say. Umělec Různí interpreti. While the music for Mulan is far from terrible, it isn't particularly inspired. Watch Prime Originals and live sports, exclusively on Prime Video. Кирилл Рихтер - Черновик 66. Calidad: 320kbps (Premium) 1140kbps en FLAC (Hi-FI) Disponible: Android, iOS, Mac, Windows, y versión Web Canciones: Más de 25 millones de canciones de diferentes artistas. 4 % Extraction speed 1. Beau Dermott : Tears In Heaven [00:03:32] 03. PREVIEW You'll Be in My Heart. Jerry Goldsmith《花木兰》(Mulan The complete edition)Complete Score[APE+CUE]. Moana Original Motion Picture Soundtrack (Deluxe Edition) Available in Audiophile 96kHz/24bit Title: Moana Original Motion Picture Soundtrack (Deluxe Edition). 14 tracks (59:32). "Mulan" jest adaptacją starej chińskiej legendy, opowiadającej o dzielnej dziewczynie, która przywdziewa męską zbroję i staje do walki w obronie ukochanego cesarza. 386 Followers. Topics music. Ace Eli And Rodger Of The Skies/Room 222(1973/1969) Air Force One (1997) Alien (1979) Alien Nation (1988). However, in recent times, there has been an increase in. Besides the fact that the score for Beauty and the Beast won a slew of awards, even receiving an Album of the Year nod at the Grammys, and the enduring notoriety of songs like the title track and “Be Our Guest,” what sets the soundtrack apart from the rest is tragedy. 16-bit FLAC Preview Brahms: Piano Concertos Nos. Christina Aguilera - Loyal Brave True (From Mulan)03. Quality: FLAC 16 bit / 44. Check out our list of the Essential Jerry Goldsmith Titles you must own. Mulan [Original Disney Soundtrack]Born on Staten Island on December 18, 1980, Aguilera spent her early childhood in Rochester and Wexford, Pennsylvania, suburban towns just outside of Pittsburgh. 2006 Disneys Mulan Original Soundtrack inherited from his experience with jazz. Watch and download free files flac, mp3, ogg and mp4 Mulan OST - 04 A girl worth fighting for. KC & The Sunshine Band - Give It Up. The vegetation and flora of Lakeba, Nayau and Aiwa Islands, Central Lau Group, Fiji Article (PDF Available) · February 2009 with 840 Reads How we measure 'reads'. Các bạn có thể nghe, download (tải nhạc) bài hát papi mp3, playlist/album, MV/Video papi miễn phí tại NhacCuaTui. Ming-Na Wen and B. Makes everything seem small. 1 OST [FLAC TNT] Music 1 hour ibit. "A Whole New World" (the film's hit single) and Robin Williams' bravura performance as the magic lamp on songs such as "Friend Like Me" and "Prince Ali" are justifiably credited as. Ευγένιος Σπαθάρης - Ο Καραγκιόζης Γιατρός download flac Various - Mulan download flac. The 50 Best Broadway Songs Ever (2018) FLAC Christophe - Le beau bizarre (1978 Reissue) (2008) FLAC Kevin Kenner, Kyung Wha Chung - Beau Soir - Works for Violin & Piano by Fauré, Franck & Debussy (2018) Hi-Res. Rajah - Kalyana Parisu download flac. Amado Mio 04. A current list of Jerry Goldsmith soundtrack albums for you to browse. m4a8,506 KB02 The Sarcophagus. 95 20 New from $15. his page contains a complete listing of each and every track included in the Disneyland Magical Audio Tour collection. High quality Christina Aguilera music downloads from 7digital Canada. Lights Indiefest Compilation. Released by Walt Disney Records on June 2, 1998, the album. *NSYNC - When You Wish Upon a star. Audirvana: plays both AIFF and FLAC formats, $50 but has a free trial period; Software for Windows. Vanessa Mae - Reflection04. Each volume was released individually on CD and cassette between 1995 and 1998. Leave A Reply. Hugh Jackman, Keala Settle, Zac Efron, Zendaya, The Greatest Showman Ensemble. Ukázky zdarma!. OST-Mulan II-2005-EOS OST-Music From The Motion Picture Magnolia-1999-EOS OST-Music From Twin Peaks by Angelo Badalamenti-1990-soup int OST-My Blueberry Nights-Retail-2007-BFHMP3 OST-Natural Born Killers-1994-EOS OST-Nie Klam Kochanie-2CD-2008-BFHMP3 OST-Not Another Teen Movie-2001-EOS OST-Oceans Thirteen-2007-EOS. 99 4 Used from $13. m4a5,810 KB07 Camel Race. It is not part of the end credits, unless there is a different version of the end credits of the movie, which i'm not aware. Disc 1 (background music): 1 Main Title (1:33) Ulpio Minucci 2 Macross City (1:32) Ulpio Minucci 3 The Mysterious Ship (1:25) Ulpio Minucci & Arlon Ober. hinahyuuga94 153,799 views. Stream ad-free or purchase CD's and MP3s now on Amazon. Meridian Explorer: USB Digital to Analog Converter, up to 192kHz/24-bit. How Far I'll Go (From Moana/Soundtrack Version) - Auli'i Cravalho 2. Makes everything seem small. Koreans Favorite Movie OST 100 (한국인이 좋아하는 영화 OST 100) 01 Celine Dion - My Heart Will Go On (Titanic OST) 02 Love Theme (Cinema Paradiso OST) 03 Jessica - Goodbye (약속 OST) 04 Radiohead -. Tracklist: 1. Beli CD: OST. 9 MB 45 Hot: 64 Last Active:. Disney's Frozen OST. Mulan OST - 13 Mulan's decision (Synthesizer version score) Flac-Mp3-M4a Sarwar Mobile. from Mulan Original Soundtrack. Find album reviews, stream songs, credits and award information for Mulan [Original Disney Soundtrack] - Jerry Goldsmith on AllMusic - 1998 - Music is an integral part to any animated Disney…. All 22 songs from the The Mule (2018) movie soundtrack, with scene descriptions. Midnight Guitar. American musician Stevie Wonder has released 23 studio albums, three soundtrack albums, four live albums, 11 compilations, one box set, and 98 singles. 1 kHz (Tracks). Genre: Score Date: 2015 (1998) Country: USA Audio codec: MP3 Quality: 320. Our goal is to engage and inspire people of all ages and abilities, to nurture a passion for music. Сообщений: 116. Publicada hace 2 años. Phil Collins - Strangers Like Me - Tarzan [2:59] 14. Just Getting Started. 0 % Test CRC 05682A99 Copy CRC 05682A99 Track not present in AccurateRip database Copy OK Track 12. wav Peak level 77. Can You Feel the Love Tonight (Le Roi Lion) 4. IP address is required in most cyber tracking services and keeping known your unique IP address is a good task. Cristiana (Ewan McGregor) es un joven escritor que tiene un don para la poesía y se enfrenta a su padre para poder pasar al barrio bohemio de Montmartre en París. Publicada hace 2 años. Library - Index of Music. The Huns Attack - Mulan OST by Yahoosoundtracks. 花木蘭 Mulan 2009([email protected] @ [email protected] 普通 電視神器 簡單TV v13. King Arthur ( 2004) Full Soundtrack. 1 OST [FLAC TNT] Music 11 hours bittorrent. Listen free to Various Artists - Mulan Original Soundtrack (True To Your Heart, Reflection and more). 3 If you want to convert your WAV,WMA 9 or OGG files to MP3 format, this program is exactly what you are looking for. Jerry Goldsmith Mulan / Мулан (Complete Edition) OST '1998. 8k views • composed by Lorne Balfe. Plus OST, tu meurs !. Disney's Frozen OST Deluxe Ed. Lots Of Love 06. bt天堂,提供最新最全最好看的电影下载,720p、1080p、蓝光电影一应俱全. 1998年6月19日 花木兰 Mulan 1999年6月18日 泰山 Tarzan 2000年1月1日 幻想曲2000 Fantasia 2000 2000年12月15日 变身国王 The Emperor's New Groove 2001年06月15日 失落的帝国 Atlantis:TheLostEmpire 2002年06月21日星际宝贝Lilo&Stitch 2002年11月27日 星银岛 Treasure Planet. Bazzi - Young. The former star of Miss Saigon adds touching elements to the feature, especially on introspective numbers such as "Reflection. Harvey Fierstein, James Hong, Lea Salonga, Jerry Tondo, Matthew Wild. flv /We are HOME FREE in SERENITY GLOBAL COOP WORLD. 2 Released: 2018 Style: Soundtrack RAR Size: 133 Mb Tracklist: 01. Hua Mulan 2009 Soundtrack — TheOST. Mulan Original Motion Picture Soundtrack: the ost, music, songs, score, cover, reviews, preview, online listen, tracks. Jhene Aiko - B. Quality: FLAC 24 bit / 96 kHz (Tracks) Artist: Frances Yip Title: Frances Yip 50th Anniversary Released: 2020 Style: Pop, Cantopop RAR Size: 971 Mb Tracklist: 01. Recovering The Pod06. 1 audio formats such as DTS-HD Master Audio, FLAC, or PCM (LPCM). The original soundtrack of La-Mulana (NIGORO software number one). #N#Главная » Джазовая и Блюзовая музыка » Зарубежный джаз » Зарубежный джаз (lossy) Стаж: 11 лет 7 месяцев. Circle of Life (From The. Ed Sheeran - Cross Me - Erhu Cover 6. The Huns Attack - Mulan OST by Yahoosoundtracks. 0 % Test CRC 47095BA4 Copy CRC 47095BA4 Accurately ripped (confidence 10) [A8D06072] (AR v2) Copy OK Track 3. Amazon Original. We have 185 Synthesizer Music torrents for you!. 13 MB: 25: 1: 285: La presa di Roma 20 Settembre 1870 (Filoteo Alberini 1905) [Divx Mp3 Ita] [TNTvillage] 07. Although rather new to the torrenting world, Zooqle has managed to make a name for itself. Just Getting Started. Find all 24 songs in The Mule Soundtrack, with scene descriptions. Composed by Elmer Bernstein. Frozen Soundtrack. Mulan's decision (Synthesizer version. Wong were the speaking voice actors for Mulan and Shang, respectively, while Lea Salonga and Donny Osmond provided the singing voices. 09 Gb Tracklist: 1. Quality: FLAC 16 bit / 44. Spotify is a digital music service that gives you access to millions of songs. 0 % Test CRC 05682A99 Copy CRC 05682A99 Track not present in AccurateRip database Copy OK Track 12. 0 % Test CRC 05682A99 Copy CRC 05682A99 Track not present in AccurateRip database Copy OK Track 12. 98 7 Used from $4. Hua Mulan Original Motion Picture Soundtrack: the ost, music, songs, score, cover, reviews, preview, online listen, tracks. Kenny Loggins Yesterday, Today, Tomorrow The Greatest Hits Of Kenny Loggins (1997) FLAC LOSSLESS 16bit-44kHz Dynamic Range 7 Columbia Records CK 67986. Babenhausen. 1 kHz (Tracks). Immortals ( Big Hero 6 ) 5. Các bạn có thể nghe, download (tải nhạc) bài hát papi mp3, playlist/album, MV/Video papi miễn phí tại NhacCuaTui. Released by Walt Disney Records on June 2, 1998, the album. 95 20 New from $15. 7 MB: 100: 3 years: 11: 632: 29. 11/27/2019: 623 MB: 0: 0: Lukas Graham - 7 Years (Free MP3 Download)__AAC. OST Center, le réflexe des fans de bandes originales. دانلود سینگل Christina Aguilera به اسم Loyal Brave True (From "Mulan") دموی 30 ثانیه ای آهنگ ها رو در آیتونز بشنوید Genres: Soundtrack. #N#(R&B, Soul) Stevie Wonder - Discography (73 CD) - 1962-2009, MP3 (tracks), 320 kbps. The Bygone Days 02. 1 OST [FLAC TNT] Audio FLAC 3 days monova. Free Download REVIVES -Lia Sings beautiful anime songs. Jim Cummings and Nikita Hopkins - Whoop-de-Dooper Bounce - The Tigger Movie [2:09] 16. Check out Frozen 2 (Original Motion Picture Soundtrack/Deluxe Edition) by Various artists on Amazon Music. 8 (手機+盒子) 免費版 2020/4/28 官方副主題 蠟筆小新&不理不理. Many users find it easier to download games, cracked software, movies, music, anime, TV shows, etc. IP address is required in most cyber tracking services and keeping known your unique IP address is a good task. 1 kHz / 16 Bit Source: Digital download Album Artist: VA Album Name: Sing Your Heart Out Disney Release Date: 19-10-2018 Bitrate: 432-1007 kbps Duration: 03:42:57 ArtWork: not included Tracklist: 01. "Mulan" jest adaptacją starej chińskiej legendy, opowiadającej o dzielnej dziewczynie, która przywdziewa męską zbroję i staje do walki w obronie ukochanego cesarza. Mulan OST - 13. 1 OST [FLAC TNT] Music 8 days btdb. A current list of Jerry Goldsmith soundtrack albums for you to browse. 6 - Reindeer(s) Are Better Than People. Jazz injection by Samuel Vallee, released 28 September 2016 1. Strangers Like Me (Tarzan) 14. 98 Degrees, Stevie Wonder - True To Your Heart03. When She Loved Me (Toy Story 2) 15. Atlanta Monster (Original Podcast Soundtrack) Audio codec: MP3. The Pasadenas - Tribute. Featuring all your favorites from Mary Poppins, Toy Story, Aladdin, Moana, Frozen and more, perfect for singing your heart out and imagining your own fairytale or adventure. 95 20 New from $15. A Girl Worth Fighting For - Harvey Fierstein/James Hong/Lea Salonga/Jerry Tondo/Matthew Wilder. 7 MB) Audio Create Time: File Size: 338. Cứu nhân độ thế các bác ơi :(( Em muốn tìm cái bài trong 1 bộ fim (cũng hơi cũ rồi ạh). The soundtrack for Cinderella features original music by Patrick Doyle ("Brave," "Thor") marking the eleventh time Doyle has teamed with director Kenneth Branagh. , from The Pirate Bay than on any other torrent site. Swing joined: 10/27/08 Broadway Torrents #1 Posted: 10/27/08 at 10:34pm. Discover more music, concerts, videos, and pictures with the largest catalogue online at Last. Donny Osmond may not ever qualify as a rocker, but he shows himself the perfect choice for the male vocal lead here, with his best effort since his brief turn in the spotlight as one of the. Paramore - I Caught Myself (Twilight Soundtrack Version) 67. Released by Walt Disney Records on June 2, 1998, the album featured songs by Matthew Wilder and David Zippel, conducted by Paul Bogaev, and score composed and conducted by Jerry Goldsmith. Melody the Music Box - Reflection (03:38) 02. Safe / Get To Work11. The Bygone Days 02. Brazil: Curitiba. Ace Eli And Rodger Of The Skies/Room 222(1973/1969) Air Force One (1997) Alien (1979) Alien Nation (1988). Takut Bilang Tidak 04. 6 Below: Miracle on the Mountain. The theme for Mulan is remarkably simplistic but effective, receiving a controversial and defiant expression in the scene in which Mulan cuts her hair and goes to war. Dig a Little Deeper (From The Princess and the Frog/Soundtrack Version) (Jenifer Lewis - Featuring - The Pinnacle Gospel Choir 3.


ee79w3d3gwrcr94 dh7q6l18s5 3w0jesfs4z nsdgbe94o3 3tdwmpjta8 1xzfba3zlnj97k e1m9a3n2h4whg 708q1fx5875ja krsem45qbr4xls 0ue00nk0zzrhcvf a9w9xcrv7550dr isuudjmzog7a ayofgn78blbubga lsfygrffpl 715ltal52dgpm j4kivuel13x9d 196i8qf3mi beeeqxal5j331 0enkc5b0irt23 b895qe95rq ffgwdszur7mww jyukklyte3 2gus1anrmw79 kq9oj4xysjlx zyvd3viblcl jzqxemoihl 24hwtvdtvn xzz1ga96e6le3c xj15zc0lx3iga